[an error occurred while processing this directive] [an error occurred while processing this directive][an error occurred while processing this directive] [an error occurred while processing this directive] [an error occurred while processing this directive] [an error occurred while processing this directive] (none) [an error occurred while processing this directive] [an error occurred while processing this directive] [an error occurred while processing this directive] [an error occurred while processing this directive] [an error occurred while processing this directive][an error occurred while processing this directive] [an error occurred while processing this directive][an error occurred while processing this directive] [an error occurred while processing this directive][an error occurred while processing this directive] [an error occurred while processing this directive] [an error occurred while processing this directive] [an error occurred while processing this directive] (none) [an error occurred while processing this directive] [an error occurred while processing this directive] [an error occurred while processing this directive][an error occurred while processing this directive]
 
[an error occurred while processing this directive] [an error occurred while processing this directive]
Skåne Sjælland Linux User Group - http://www.sslug.dk Home   Subscribe   Mail Archive   Forum   Calendar   Search
MhonArc Date: [Date Prev] [Date Index] [Date Next]   Thread: [Date Prev] [Thread Index] [Date Next]   MhonArc
 

Re: [TEKNIK] Retation af video



Jeg har fumlet lidt videre med ffmpeg, og hvis man kun angiver filen som 
input hoster den lidt info ud. På mig ser det ud til at den genkender alt i 
filen og understøtter den fuldt ud, men stadig intet held med 
konverteringer.

\Henrik

ffmpeg -i Seb_Org.3gp 
ffmpeg version 0.8, Copyright (c) 2000-2011 the FFmpeg developers
  built on Jul 24 2011 20:44:26 with gcc 4.4.5
  configuration: 
  libavutil    51.  9. 1 / 51.  9. 1
  libavcodec   53.  7. 0 / 53.  7. 0
  libavformat  53.  4. 0 / 53.  4. 0
  libavdevice  53.  1. 1 / 53.  1. 1
  libavfilter   2. 23. 0 /  2. 23. 0
  libswscale    2.  0. 0 /  2.  0. 0
[mov,mp4,m4a,3gp,3g2,mj2 @ 0xa243340] multiple edit list entries, a/v desync 
might occur, patch welcome
                                                                                                                                 
Seems stream 1 codec frame rate differs from container frame rate: 180000.00 
(180000/1) -> 90000.00 (180000/2)
Input #0, mov,mp4,m4a,3gp,3g2,mj2, from 'Seb_Org.3gp':
  Metadata:
    major_brand     : isom
    minor_version   : 0
    compatible_brands: isom3gp4
    creation_time   : 1945-07-07 17:27:21
  Duration: 00:01:24.73, start: 0.000000, bitrate: 3134 kb/s
    Stream #0.0(eng): Audio: aac, 16000 Hz, mono, s16, 96 kb/s
    Metadata:
      creation_time   : 1945-07-07 17:27:21
    Stream #0.1(eng): Video: h264 (Baseline), yuv420p, 720x480, 3003 kb/s, 
PAR 65536:65536 DAR 3:2, 30.02 fps, 90k tbr, 90k tbn, 180k tbc
    Metadata:
      creation_time   : 1945-07-07 17:27:21
At least one output file must be specified



 
Home   Subscribe   Mail Archive   Index   Calendar   Search

 
 
Questions about the web-pages to <www_admin>. Last modified 2011-08-01, 02:01 CEST [an error occurred while processing this directive]
This page is maintained by [an error occurred while processing this directive]MHonArc [an error occurred while processing this directive] # [an error occurred while processing this directive] *